#TITLE:Baragoku Otome;
#SUBTITLE:- Rozen Maiden Ouvertüre Opening;
#ARTIST:ALI PROJECT;
#TITLETRANSLIT:;
#SUBTITLETRANSLIT:;
#ARTISTTRANSLIT:;
#CREDIT:Xion Steel, Jubo for song;
#BANNER:Ouverture.png;
#BACKGROUND:Ouverture bg.png;
#LYRICSPATH:Rozen Maiden - Baragoku Otome.lrc;
#CDTITLE:SS credit logo.png;
#MUSIC:01 - Baragoku Otome.mp3;
#OFFSET:0.000;
#SAMPLESTART:64.800;
#SAMPLELENGTH:24.000;
#SELECTABLE:YES;
#BPMS:0.000=160.010;
#STOPS:;
#BGCHANGES:;
// cache tags:
#FIRSTBEAT:3.500;
#LASTBEAT:744.250;
#SONGFILENAME:songs/Otaku's Dream 3rd Anime Mix/[Xion Steel] Baragoku Otome - Rozen Maiden Ouvertuere OP/Rozen Maiden - Baragoku Otome.sm;
#HASMUSIC:1;
#HASBANNER:1;
#MUSICLENGTH:286.007;
// end cache tags

//---------------dance-single - Blank----------------
#NOTES:
     dance-single:
     Blank:
     Challenge:
     10:
     1.000,1.000,1.000,1.000,0.346,1219.000,447.000,487.000,0.000,0.000:

0000
0000
0000
0000
0000
0000
0000
0200
,
0000
0000
0000
0000
0000
0000
0000
0000
0000
0000
0300
0020
0000
0000
0000
0000
0000
0000
0030
2000
0000
0000
0000
0000
0000
0000
3000
0020
0000
0000
0000
0000
,
0000
0000
0030
0002
0000
0000
0000
0000
0000
0003
0200
0000
0000
0000
0000
0000
0000
0300
2000
0000
0000
0000
0000
0000
3000
0020
0000
0000
0000
0000
0000
0030
,
2000
0000
0000
0000
0000
0000
0000
3000
0200
0000
0000
0000
0000
0000
0000
0000
0000
0000
0000
0000
0000
0000
0000
0000
0020
0000
0000
0000
0000
0000
0000
0000
,
0000
0000
0000
0000
0000
0000
0000
0330
0000
0200
0000
0000
0000
0000
0000
0000
0300
0002
0000
0000
0000
0000
0000
0000
0003
2000
0000
0000
0000
0000
0000
0000
,
3000
0020
0000
0000
0000
0000
0000
0000
0030
0200
0000
0000
0000
0000
0000
0000
0300
0020
0000
0000
0000
0000
0000
0000
0030
2000
0000
0000
0000
0000
0000
0000
,
3000
0002
0000
0000
0000
0000
0000
0003
0200
0000
0000
0000
0000
0000
0000
0300
2000
0000
0000
0000
0000
0000
0000
3000
0020
0000
0000
0000
0000
0000
0030
2000
,
0000
0000
0000
0000
0000
0000
3000
0200
0000
0000
0000
0000
0000
0000
0000
0000
0000
0000
0000
0000
0000
0000
0020
0000
0000
0000
0000
0000
0000
0000
0000
0000
,
0000
0000
0000
0000
0000
0000
0330
0200
0000
0000
0000
0000
0000
0000
0300
0020
0000
0000
0000
0000
0000
0000
0030
2000
0000
0000
0000
0000
0000
0000
3000
0002
,
0000
0000
0000
0000
0000
0000
0003
0200
0000
0000
0000
0000
0000
0000
0000
0002
0000
0000
0000
0000
0000
0000
0003
0020
0000
0000
0000
0000
0000
0000
0000
0030
,
2000
0000
0000
0000
0000
0000
0000
0000
3300
0202
0000
0000
0000
0000
0000
0000
0000
0000
0000
0303
2020
0000
0000
0000
0000
0000
0000
0000
0000
0000
0000
0000
,
0000
0000
0000
0000
0000
0000
0000
3030
2000
0000
0000
0000
0000
0000
0000
0000
0200
0000
0000
0000
0000
0000
0000
0300
0002
0000
0000
0000
0000
0000
0000
0003
,
0200
0000
0000
0000
0000
0000
0000
0000
3300
2002
0000
0000
0000
0000
0000
0000
0000
0000
0000
3003
0220
0000
0000
0000
0000
0000
0000
0000
0000
0000
0000
0000
,
0000
0000
0000
0000
0000
0000
0000
0000
0330
0200
0000
0000
0000
0000
0000
0000
0300
0002
0000
0000
0000
0000
0000
0000
0003
2000
0000
0000
0000
0000
0000
3000
,
0200
0000
0000
0000
0000
0000
0000
0300
2010
0000
0001
0000
0100
0000
0001
0000
0100
0000
0010
0000
0100
3000
0020
0000
0000
0000
0000
0000
0000
0000
0000
0030
,
0020
0000
0000
0000
0000
0000
0000
0030
2001
0000
0000
0000
0000
0000
0200
0000
0000
0000
0000
0300
0002
0000
0000
0000
0000
0003
0200
0000
0000
0000
0000
0300
,
0020
0000
0000
0000
0030
0002
0000
0000
0000
3003
0220
0000
0000
0000
0000
0330
0202
0000
0000
0000
0000
0303
2002
0000
0000
0000
0000
0000
0000
0000
0000
0000
,
0000
3003
0100
0010
1001
0000
0000
0000
1000
0000
0000
0000
0100
0000
0000
0000
,
1000
0000
0010
0000
0201
0000
0000
0000
1000
0000
0000
0300
0001
0000
0000
0000
,
0010
0000
0101
0000
1000
0100
0010
0000
,
0100
0000
0000
0000
1000
0000
0100
0000
0022
0000
0000
0000
0000
0000
0000
0033
2000
0000
0000
0000
0000
0000
0000
3000
0200
0000
0000
0300
0002
0000
0000
0003
,
0020
0000
0000
0030
0200
0000
0000
0300
1002
0000
0000
0000
0000
0000
0000
0000
1000
0000
0000
0000
0000
0000
0000
0000
1000
0000
0000
0000
0000
0000
0000
0000
,
1000
0000
0000
0000
0100
0000
0010
0003
2001
0000
0000
0000
0000
0000
0000
0000
0001
0000
0000
0000
0000
0000
0000
0000
0010
0000
0000
0000
0000
0000
0000
3000
,
0020
0000
0000
0000
0000
0000
0000
0030
0201
0000
0000
0000
0000
0000
0000
0000
0010
0000
0000
0000
1000
0000
0000
0000
0001
0000
0000
0000
0000
0000
0000
0000
,
1000
0000
0001
1300
0101
0000
0000
0000
0100
0000
0000
0000
0010
0000
0000
0000
,
0001
0010
0011
0000
1000
0000
0100
0000
,
1000
0000
0000
0000
0100
0000
0010
0000
0102
0000
0000
0000
0000
0000
0000
0000
0100
0000
0000
0000
0000
0000
0000
0003
0010
0000
0000
0000
0000
0000
0000
0000
,
0010
0000
1100
0000
0010
0010
0001
0000
,
1000
0000
0000
0000
0100
0000
0010
0000
1001
0000
0000
0000
0000
0000
0000
0000
0001
0000
0000
0000
0000
0000
0000
0000
0020
0000
0000
0030
2000
0000
0000
3000
,
0200
0000
0000
0300
0002
0000
0000
0003
2020
0000
0000
0000
0000
0000
0000
3030
0220
0000
0000
0000
0000
0000
0000
0330
2000
0000
0000
0000
0000
0000
0000
3000
,
0020
0000
0000
0000
0100
0000
1000
0030
0101
0000
0000
0000
0000
0000
0000
0000
0100
0000
0000
0000
0000
0000
0000
0000
0100
0000
0000
0000
0000
0000
0000
0000
,
0010
0000
0011
0000
1000
0001
0010
0000
,
0010
0000
0101
0010
0000
0101
0010
0000
,
1000
0010
1001
0000
0010
0000
0101
0000
,
1100
1100
0101
1010
,
0101
1100
0110
0110
,
0001
0100
1010
0000
0100
0000
1010
0000
,
0001
0000
1010
0000
0100
0001
1010
0000
,
0010
0000
1002
0000
0100
0003
1100
0000
,
0100
1100
0010
0011
,
1000
0200
0010
0010
,
0001
0000
0000
0000
0001
0000
0000
0300
1010
0000
0000
0000
2020
0000
0000
3030
0200
0000
0000
0300
0020
0000
0000
0030
0200
0000
0000
0300
2000
0000
0000
3000
,
0020
0000
0000
0000
0000
0000
0000
0030
1001
0000
0100
0000
0010
0000
0001
0000
1000
0000
0100
0000
0010
0000
0001
0000
1000
0000
0100
0000
0010
0000
0001
0000
,
1000
0100
0010
0001
1100
0000
0110
0000
1001
0000
0101
0000
1010
0000
0110
0000
,
0000
0000
0110
0000
1000
0010
0001
0000
0110
0000
1010
0000
0011
0000
1010
0000
,
0000
1000
0110
0110
0011
0011
0110
0110
,
1001
0000
1001
0000
1001
0010
0100
0000
0010
1000
0100
0000
1001
0100
0010
0000
,
0100
1000
0010
0000
1001
0000
1100
0000
1001
0000
0110
0000
1010
0000
0011
0000
,
0000
0000
1100
0000
0010
0100
0001
0000
0110
0000
0011
0000
1001
0000
1001
0000
,
0100
0000
0000
0000
0010
0000
0000
0000
1100
0000
0000
0000
0002
0000
0000
0003
0020
0000
0000
0030
0200
0000
0000
0300
0000
0000
0000
0000
0200
0000
0000
0300
,
0020
0000
0000
0030
2000
0000
0000
3000
0001
0000
0010
0000
0001
0000
0000
0000
0110
0000
0000
0000
0110
0000
0000
0000
0100
0000
1000
0000
0100
0000
1000
0000
,
0100
0110
1001
0110
0011
1010
0110
1001
,
0000
0000
1100
0000
0010
0100
0001
0000
1010
0000
0110
0000
1001
0000
0110
0000
,
0000
0100
1001
1001
1010
1010
0101
0101
,
0110
0000
0110
0000
0110
1000
0001
0000
1000
0010
0001
0000
0110
0001
1000
0000
,
0001
0100
1000
0000
0110
0000
1010
0000
0110
0000
0101
0000
0110
0000
1001
0000
,
0000
0000
0110
0000
0001
0010
1000
0000
0101
0000
0101
0000
0110
0000
1001
0000
,
0100
0000
0000
0000
0010
0000
0000
0000
0110
0000
0000
0000
0200
0000
0000
0300
2000
0000
0000
3000
0002
0000
0000
0003
0000
0000
0000
0000
0020
0000
0000
0030
,
0200
0000
0000
0300
2000
0000
0000
3000
0011
0000
0000
0000
0101
0000
0000
0000
0100
0000
0010
0000
0100
0000
0010
0000
0202
0000
0000
0000
0000
0000
0000
0000
,
0000
0000
0000
0000
0000
0000
0000
0303
2010
0000
0000
0000
0000
0000
0000
0000
0100
0000
0000
0000
0100
0000
3000
0000
0001
0000
0000
0000
0000
0000
0000
0000
,
0100
0000
0000
0000
0000
0000
0000
0000
0002
0000
0000
0000
0000
0003
0020
0000
0000
0000
0000
0030
2000
0000
0000
3000
2000
0000
0000
0000
0000
3000
0020
0000
,
0000
0000
0000
0030
2002
0000
0000
3003
0202
0000
0000
0000
0000
0000
0000
0000
0000
0000
0000
0303
2000
0000
0000
0000
0002
0000
3000
0000
0020
0000
0000
0030
,
0200
0000
0000
0300
2000
0000
0000
3000
0200
0000
0000
0303
2000
0000
0000
0000
0200
0000
0000
0300
0020
0000
0000
0030
0002
0000
0000
0003
0020
0000
0000
3030
,
2020
0000
0000
3030
2002
0000
0000
3003
2010
0000
0000
0000
0000
0000
0000
0000
0001
0000
0000
0000
0010
0000
0000
0000
0010
0000
0000
0000
0000
0000
3000
0000
,
1010
0000
0110
0000
1001
0000
1000
0001
,
0100
0000
0000
0000
0010
0000
0000
0000
2001
0000
0100
0000
0010
0000
0001
0000
0000
0000
0000
3000
0220
0000
0000
0330
0102
0000
0000
0000
0200
0000
0000
0300
,
0020
0000
0000
0030
0200
0000
0000
0300
2000
0000
0000
3000
0200
0000
0003
0300
0020
0000
0000
0000
0200
0000
0000
0300
0001
0000
0100
0000
1000
0000
0001
0000
,
0100
1000
0001
0100
1000
0030
1010
0000
1010
0000
1010
0000
0000
0000
0101
0000
,
0101
0000
0101
0000
0000
0000
1100
0000
0011
0000
1100
0000
0001
0010
1000
0000
,
0202
0000
0000
0000
0000
0000
0000
0303
2002
0000
0000
0000
0000
0000
0000
0000
0000
0000
0000
3000
1000
0000
0010
0000
0200
0000
0000
0000
0000
0000
0000
0000
,
0000
0300
2000
0000
0000
0000
0000
0000
0000
0000
0000
3000
0020
0000
0000
0000
0000
0000
0000
0033
1100
0000
0000
0000
1010
0000
0000
0000
0000
0000
0000
0000
,
1010
0000
0000
0000
1000
0000
0001
0000
0220
0000
0000
0000
0000
0000
0000
0330
2000
0000
0000
3000
0200
0000
0000
0300
0021
0000
0000
0000
0001
0000
0000
0030
,
2002
0000
0000
0000
0000
0000
0000
3003
0020
0000
0000
0030
0200
0000
0000
0300
0002
0000
0000
0003
0200
0000
0000
0300
2010
0000
0000
0000
0010
0000
0000
3000
,
0202
0000
0000
0000
0000
0000
0000
0303
2002
0000
0000
0000
0000
0000
0000
3003
2000
0000
0000
3000
0002
0000
0000
0003
0120
0000
0000
0000
0100
0000
0000
0030
,
0200
0000
0000
0000
0000
0000
0000
0300
2002
0000
0000
3003
0200
0000
0000
0300
0020
0000
0000
0030
2000
0000
0000
3000
0201
0000
0000
0000
0001
0000
0000
0300
,
0002
0000
0000
0000
0000
0000
0000
0003
0020
0000
0000
0030
0002
0000
0000
0003
0020
0000
0000
0030
0200
0000
0000
0300
0000
0000
0000
0000
2000
0000
0000
3000
,
0200
0000
0000
0300
0020
0000
0000
0030
0000
0000
0000
0000
0020
0000
0000
0030
0200
0000
0000
0300
2000
0000
0000
3000
0002
0000
0000
0003
0000
0000
0000
0000
,
2000
0000
0000
3000
0020
0000
0000
0030
0002
0000
0200
0300
2000
3000
0200
0300
0020
0030
0200
0300
2000
3000
0200
0300
0020
0030
0200
0300
2000
3000
0200
0300
,
0020
0030
0000
0000
0000
0000
0000
0003
2020
0000
0000
0000
0000
3030
0220
0000
0000
0000
0330
0202
0000
0000
0000
0303
2002
0000
0000
0000
0000
3003
0220
0000
,
0000
0000
0000
0330
0022
0000
0000
0033
1001
0000
0000
0000
0000
0000
0000
0000
0100
0000
0000
0000
0000
0000
0000
0000
0010
0000
0000
0000
0000
0000
0000
0000
,
1000
0000
0100
0001
2010
0000
0000
0000
0100
0000
0000
3000
0010
0000
0000
0000
,
0001
0000
0110
0000
0001
0010
1000
0000
,
0010
0000
1000
0100
0011
0000
0000
0000
2000
0000
0000
0000
0100
0000
0000
0000
,
0001
0000
0010
3000
0110
0000
0000
0000
1000
0000
0000
0000
0010
0000
0000
0000
,
0001
0000
0100
0010
1100
0000
0000
0000
0010
0000
0000
0000
0100
0000
0000
0000
,
0010
0000
0101
0000
1000
0010
0001
0000
,
0100
0000
0100
0010
1002
0000
0000
0000
0100
0000
0000
0000
0010
0000
0000
0000
,
2000
0000
0000
3000
0200
0000
0000
0303
0020
0000
0000
0000
0000
0000
0000
0000
0100
0000
0000
0000
0000
0000
0000
0000
1000
0000
0000
0000
0000
0000
0000
0000
,
0100
0000
0001
0130
1010
0000
0000
0000
0100
0000
0000
0000
0001
0000
0000
0000
,
0100
0000
1010
0000
0100
0010
0010
0000
,
1000
0000
0000
0000
0001
0000
0100
0000
0011
0000
0000
0000
0000
0000
0000
0000
1000
0000
0000
0000
0000
0000
0000
0000
0020
0000
0000
0030
2000
0000
0000
3000
,
0200
0000
0000
0300
0020
0000
0000
0030
2002
0000
0000
0000
0000
0000
3003
0000
0100
0000
0000
0000
0000
0000
0000
0000
1000
0000
0000
0000
0000
0000
0000
0000
,
0010
0000
1000
0001
0110
0000
0000
0000
1000
0000
0000
0000
0001
0000
0000
0000
,
0100
0000
1020
0000
1000
0001
0100
0000
,
0001
0030
0100
0001
0010
0000
0101
0000
0010
0000
0000
0000
1100
0000
0001
0000
,
0110
0000
0010
0000
2001
0000
0000
0000
0001
0000
0000
3000
1010
0000
0000
0000
,
1001
0110
1001
1010
,
0101
0110
1100
0110
,
1000
0010
0011
0000
1001
0000
0110
0000
,
0001
0000
1000
0000
0100
0010
1100
0000
,
0001
0000
0000
0000
0020
0000
0000
0000
0100
0000
1000
0130
1001
0000
0000
0000
,
0100
0010
1000
1010
,
0100
0200
1000
0010
,
1000
0000
0000
0000
1000
0000
0000
0300
1010
0000
0000
0000
2020
0000
0000
3030
0200
0000
0000
0300
0020
0000
0000
0030
2000
0000
0000
3000
0002
0000
0000
0003
,
0200
0000
0000
0000
0000
0000
0000
0300
1001
0000
0010
0000
0100
0000
1000
0000
0001
0000
0010
0000
0100
0000
1000
0000
0001
0000
0010
0000
0100
0000
1000
0000
,
0001
0010
0100
1000
0101
0000
0110
0000
1010
0000
0101
0000
1001
0000
1010
0000
,
0000
0000
0110
0000
2002
0000
0000
3003
1010
0000
0110
0000
1001
0000
0011
0000
,
0000
1000
0110
1001
0110
1001
0011
1100
,
0011
0000
1100
0000
1100
0010
0001
0000
0100
0010
1000
0000
1100
0010
0001
0000
,
0100
0010
1000
0000
1100
0000
0110
0000
1001
0000
0011
0000
1010
0000
1001
0000
,
0000
0000
0110
0000
0001
0100
0010
0000
1100
0000
1001
0000
0011
0000
0110
0000
,
0100
0000
0000
0000
0001
0000
0000
0000
0110
0000
0000
0000
2000
0000
0000
3000
0002
0000
0000
0003
0200
0000
0000
0300
0000
0000
0000
0000
0020
0000
0000
0030
,
0200
0000
0000
0300
0002
0000
0000
0003
1000
0000
0010
0000
1000
0000
0000
0000
0110
0000
0000
0000
0110
0000
0000
0000
0100
0000
0010
0000
0100
0000
0010
0000
,
0100
1001
0110
1001
0101
1010
0110
1001
,
0000
0000
0101
0000
0010
0100
1000
0000
0110
0000
0101
0000
1100
0000
1001
0000
,
0000
0010
0110
0110
1001
1001
1010
1010
,
0110
0000
0110
0000
0110
1000
0100
0000
0010
0001
0010
0000
0110
1000
0100
0000
,
0010
0001
0010
0000
0110
0000
1001
0000
0110
0000
1010
0000
0101
0000
0110
0000
,
0000
0000
0000
0000
0110
0000
0000
0000
0002
0000
0000
0000
0020
0000
0000
0033
0101
0000
0000
0000
0110
0000
0000
0000
1010
0000
0000
0000
1001
0000
0000
0000
,
1000
0000
0000
0000
0001
0000
0000
0000
0110
0000
0000
0000
2000
0000
0000
3000
0002
0000
0000
0003
0020
0000
0000
0030
0000
0000
0000
0000
0200
0000
0000
0300
,
2000
0000
0000
3000
0002
0000
0000
0003
1010
0000
0000
0000
0110
0000
0000
0000
0100
0000
0001
0000
0100
0000
0001
0000
0220
0000
0000
0000
0000
0000
0000
0330
,
1001
0110
1002
0000
0100
0100
1003
0000
,
0100
0000
0000
0000
0000
0000
0000
0000
0002
0000
0000
0000
0000
0003
2000
0000
0000
0000
0000
3000
0200
0000
0000
0300
0002
0000
0000
0000
0000
0003
0020
0000
,
0000
0000
0000
0030
0022
0000
0000
0033
2002
0000
0000
0000
0000
0000
0000
0000
0000
0000
0000
3003
2000
0000
0000
0000
0002
0000
3000
0000
0020
0000
0000
0030
,
2000
0000
0000
3000
0200
0000
0000
0300
2000
0000
0000
3003
0020
0000
0000
0000
0200
0000
0000
0300
2000
0000
0000
3000
0002
0000
0000
0003
2000
0000
0030
3000
,
0022
0000
0000
0033
0202
0000
0000
0303
2010
0000
0000
0000
0000
0000
0000
0000
0001
0000
0000
0000
0010
0000
0000
0000
0010
0000
0000
0000
0000
0000
0000
3000
,
1010
0000
0110
0000
1001
0000
1000
0001
,
0100
0000
0000
0000
0010
0000
0000
0000
1002
0000
0010
0000
0100
0000
1000
0000
0000
0000
0003
0000
2020
0000
0000
3030
0102
0000
0000
0000
0200
0000
0000
0300
,
2000
0000
0000
3000
0020
0000
0000
0030
2000
0000
0000
3000
0200
0000
0000
0303
0002
0000
0000
0000
0200
0000
0000
0300
0010
0000
0100
0000
0010
0000
0100
0000
,
0010
1000
0100
1000
0100
0003
0110
0000
0110
0000
0110
0000
0000
0000
0110
0000
,
0110
0000
0110
0000
0000
0000
1001
0000
1100
0000
1001
0000
0100
0010
1000
0000
,
0202
0000
0000
0000
0000
0000
0000
0303
2002
0000
0000
0000
0000
0000
0000
3003
0200
0000
0000
0000
1000
0000
0000
0300
0021
0000
0000
0000
0000
0000
0000
0030
,
2000
0000
0000
0000
0000
0000
0000
0000
0000
0000
0000
0000
0000
0000
0000
0000
0000
0000
0000
0000
0000
0000
0000
0000
0000
0000
0000
0000
0000
0000
0000
0000
0000
0000
0000
0000
0000
0000
0000
0000
0000
0000
3000
0000
0000
0000
0000
0000
0012
0000
0000
0000
0000
0000
0000
0000
0000
0000
0000
0000
0000
0000
0000
0000
0000
0000
0000
0000
0000
0000
0000
0000
0000
0000
0000
0000
0000
0000
0000
0000
0000
0000
0000
0000
0000
0000
0000
0000
0000
0000
0003
0000
0000
0000
0000
0000
0200
0000
0000
0000
0000
0000
0000
0000
0000
0000
0000
0000
0000
0000
0000
0000
0000
0000
0000
0000
0000
0000
0000
0000
0000
0000
0000
0000
0000
0000
0000
0000
0000
0000
0000
0000
0000
0000
0000
0000
0000
0000
0300
0000
0000
0000
0000
0000
0202
0000
0000
0000
0000
0000
0000
0000
0000
0000
0000
0000
0000
0000
0000
0000
0000
0000
0000
0000
0000
0000
0000
0000
0000
0000
0000
0000
0000
0000
0303
0000
0000
0000
0000
0000
1000
0000
0000
0000
0000
0000
0000
0000
0100
0000
0000
0000
,
0000
0000
0000
0000
0001
0000
0000
0000
0000
0000
0000
0000
0000
0000
0000
0000
0000
0000
0000
0000
0000
0000
0000
0000
0000
0000
0000
0000
0000
0000
0000
0000
0000
0000
0000
0000
0000
0000
0000
0000
0000
0000
0000
0000
0000
0000
0000
0000
2010
0000
0000
0000
0000
0000
0000
0000
0000
0000
0000
0000
0000
0000
0000
0000
0000
0000
0000
0000
0000
0000
0000
0000
0000
0000
0000
0000
0000
0000
0000
0000
0000
0000
0000
0000
0000
0000
0000
0000
0000
0000
0000
0000
0000
0000
0000
0000
0100
0000
0000
0000
0000
0000
0000
0000
0000
0000
0000
0000
0000
0000
0000
0000
0000
0000
0000
0000
0000
0000
0000
0000
0001
0000
0000
0000
0000
0000
0000
0000
0000
0000
0000
0000
0000
0000
0000
0000
0000
0000
3000
0000
0000
0000
0000
0000
0012
0000
0000
0000
0000
0000
0000
0000
0000
0000
0000
0000
0000
0000
0000
0000
0000
0000
0000
0000
0000
0000
0000
0000
0000
0000
0000
0000
0000
0000
0000
0000
0000
0000
0000
0000
0000
0000
0000
0000
0000
0000
0000
0000
0000
0000
0000
0000
,
1000
0000
0000
0000
0000
0000
0000
0000
0000
0000
0000
0000
0000
0000
0000
0000
0000
0000
0000
0000
0000
0000
0000
0000
0000
0000
0000
0000
0000
0000
0000
0000
0000
0000
0000
0000
0000
0000
0000
0000
0000
0000
0003
0000
0000
0000
0000
0000
0220
0000
0000
0000
0000
0000
0000
0000
0000
0000
0000
0000
0000
0000
0000
0000
0000
0000
0000
0000
0000
0000
0000
0000
0000
0000
0000
0000
0000
0000
0330
0000
0000
0000
0000
0000
0001
0000
0000
0000
0000
0000
0000
0000
0010
0000
0000
0000
0000
0000
0000
0000
0100
0000
0000
0000
0000
0000
0000
0000
0000
0000
0000
0000
0000
0000
0000
0000
0000
0000
0000
0000
0000
0000
0000
0000
0000
0000
0000
0000
0000
0000
0000
0000
0000
0000
0000
0000
0000
0000
0000
0000
0000
0000
0000
0000
1100
0000
0000
0000
0000
0000
0000
0000
0000
0000
0000
0000
0000
0000
0000
0000
0000
0000
0000
0000
0000
0000
0000
0000
0000
0000
0000
0000
0000
0000
0000
0000
0000
0000
0000
0000
0100
0000
0000
0000
0000
0000
0000
0000
0010
0000
0000
0000
,
0000
0000
0000
0000
0001
0000
0000
0000
0000
0000
0000
0000
0000
0000
0000
0000
0000
0000
0000
0000
0000
0000
0000
0000
0000
0000
0000
0000
0000
0000
0000
0000
0000
0000
0000
0000
0000
0000
0000
0000
0000
0000
0000
0000
0000
0000
0000
0000
0201
0000
0000
0000
0000
0000
0000
0000
0000
0000
0000
0000
0000
0000
0000
0000
0000
0000
0000
0000
0000
0000
0000
0000
0000
0000
0000
0000
0000
0000
0000
0000
0000
0000
0000
0000
0000
0000
0000
0000
0000
0000
0300
0000
0000
0000
0000
0000
0020
0000
0000
0000
0000
0000
0000
0000
0000
0000
0000
0000
0000
0000
0000
0000
0000
0000
0000
0000
0000
0000
0000
0000
0100
0000
0000
0000
0000
0000
0000
0000
0000
0000
0000
0000
0000
0000
0000
0000
0000
0000
0030
0000
0000
0000
0000
0000
1002
0000
0000
0000
0000
0000
0000
0000
0000
0000
0000
0000
0000
0000
0000
0000
0000
0000
0000
0000
0000
0000
0000
0000
0000
0000
0000
0000
0000
0000
0000
0000
0000
0000
0000
0000
0000
0000
0000
0000
0000
0000
0003
0000
0000
0000
0000
0000
,
2000
0000
0000
0000
0000
0000
0000
0000
0000
0000
0000
0000
0000
0000
0000
0000
0000
0000
0000
0000
0000
0000
0000
0000
0000
0000
0000
0000
0000
0000
0000
0000
0000
0000
0000
0000
0000
0000
0000
0000
0000
0000
3000
0000
0000
0000
0000
0000
1020
0000
0000
0000
0000
0000
0000
0000
0000
0000
0000
0000
0000
0000
0000
0000
0000
0000
0000
0000
0000
0000
0000
0000
0030
0000
0000
0000
0000
0000
0000
0000
1000
0000
0000
0000
0000
0000
0000
0000
0001
0000
0000
0000
0000
0000
0000
0000
0020
0000
0000
0000
0000
0000
0000
0000
0000
0000
0000
0000
0000
0000
0000
0000
0000
0000
0000
0000
0000
0000
0000
0000
0000
0000
0000
0000
0000
0000
0000
0000
0000
0000
0000
0000
0000
0000
0000
0000
0000
0000
0030
0000
0000
0000
0000
0000
0012
0000
0000
0000
0000
0000
0000
0000
0000
0000
0000
0000
0000
0000
0000
0000
0000
0000
0000
0000
0000
0000
0000
0000
0003
0000
0000
0000
0000
0000
0000
0000
1000
0000
0000
0000
0000
0000
0000
0000
0010
0000
0000
0000
0000
0000
0000
0000
,
0200
0000
0000
0000
0000
0000
0000
0300
1002
0000
0000
0000
0000
0000
0000
0000
1000
0000
0000
0000
0100
0000
0000
0003
0012
0000
0000
0000
0000
0000
0000
0000
,
0010
0000
0000
0000
0000
0000
0000
0003
1000
0000
0100
0000
1000
0000
0100
0000
1000
0000
0000
0000
0010
0000
0000
0000
0010
0000
0001
0000
0010
0000
0001
0000
,
0110
0000
0000
0000
0110
0000
0000
0000
2001
0000
0000
0000
0000
0000
0000
3000
0200
0000
0000
0000
0001
0000
0000
0300
0021
0000
0000
0000
0000
0000
0000
0030
,
0200
0000
0000
0000
0000
0000
0000
0300
2020
0000
0000
0000
0000
0000
0000
0000
0000
0000
0000
3030
0202
0000
0000
0000
0000
0000
0000
0000
0000
0000
0000
0303
,
0101
0000
0000
0000
0110
0000
0000
0000
2100
0000
0000
0000
0000
0000
0000
3000
0002
0000
0000
0000
0100
0000
0000
0003
1020
0000
0000
0000
0000
0000
0000
0030
,
2000
0000
0000
0000
0000
0000
0000
3000
2002
0000
0000
0000
0000
0000
0000
0000
0000
0000
0000
3003
0202
0000
0000
0000
0000
0000
0000
0000
0000
0000
0000
0303
,
0110
0000
0000
0000
1001
0000
0000
0000
1020
0000
0000
0000
0100
0000
0000
0000
0001
0000
0000
0000
1000
0000
0000
0030
2001
0000
0000
0000
0100
0000
0000
0000
,
0001
0000
0000
0000
0000
0000
0000
0000
0000
0000
0000
0000
0000
0000
0000
0000
0000
0000
0000
0000
0000
0000
0000
0000
0100
0000
0000
0000
0000
0000
0000
0000
0000
0000
0000
0000
0000
0000
0000
0000
0000
0000
3000
0000
0000
0000
0000
0000
0102
0000
0000
0000
0000
0000
0000
0000
0000
0000
0000
0000
0000
0000
0000
0000
0000
0000
0000
0000
0000
0000
0000
0000
0000
0000
0000
0000
0000
0000
0000
0000
0000
0000
0000
0000
0000
0000
0000
0000
0000
0000
0000
0000
0000
0000
0000
0000
0100
0000
0000
0000
0000
0000
0000
0000
0000
0000
0000
0000
0000
0000
0000
0000
0000
0000
0000
0000
0000
0000
0000
0000
0000
0000
0000
0000
0000
0000
0000
0000
0000
0000
0000
0000
0000
0000
0000
0000
0000
0000
0003
0000
0000
0000
0000
0000
0100
0000
0000
0000
0000
0000
0000
0000
0010
0000
0000
0000
0000
0000
0000
0000
1000
0000
0000
0000
0000
0000
0000
0000
0000
0000
0000
0000
0000
0000
0000
0000
0000
0000
0000
0000
0000
0000
0000
0000
0000
0000
0000
0000
0000
0000
0000
0000
,
0010
0000
0000
0000
0000
0000
0000
0000
0100
0000
0000
0000
0000
0000
0000
0000
0001
0000
0000
0000
0000
0000
0000
0000
0000
0000
0000
0000
0000
0000
0000
0000
0000
0000
0000
0000
0000
0000
0000
0000
0000
0000
0000
0000
0000
0000
0000
0000
2002
0000
0000
0000
0000
0000
0000
0000
0000
0000
0000
0000
0000
0000
0000
0000
0000
0000
0000
0000
0000
0000
0000
0000
0000
0000
0000
0000
0000
0000
3003
0000
0000
0000
0000
0000
0020
0000
0000
0000
0000
0000
0000
0000
0000
0000
0000
0000
0000
0000
0000
0000
0000
0000
0000
0000
0000
0000
0000
0000
0000
0000
0000
0000
0000
0000
0030
0000
0000
0000
0000
0000
2000
0000
0000
0000
0000
0000
0000
0000
0000
0000
0000
0000
0000
0000
0000
0000
0000
0000
0000
0000
0000
0000
0000
0000
0002
0000
0000
0000
0000
0000
0000
0000
0000
0000
0000
0000
0000
0000
0000
0000
0000
0000
0000
0000
0000
0000
0000
0000
0000
0000
0000
0000
0000
0000
3003
0000
0000
0000
0000
0000
2020
0000
0000
0000
0000
0000
0000
0000
0000
0000
0000
0000
,
0000
0000
0000
3030
0220
0000
0000
0330
1001
0000
0100
0000
0001
0000
0100
0000
0010
0000
1000
0000
0001
0000
0100
0000
0001
0000
0100
0000
1000
0000
0010
0000
,
1000
0001
0010
0100
1001
0000
1010
0000
0110
0000
1001
0000
1010
0000
1010
0000
,
0000
0000
0101
0000
0010
0100
1000
0000
0110
0000
0101
0000
1001
0000
1010
0000
,
0000
0100
1010
1010
0110
0110
0101
0101
,
1001
0000
0000
0000
1001
0000
0000
0000
1001
0000
0000
0000
0200
0000
0000
0300
0020
0000
0000
0030
0200
0000
0000
0300
2002
0000
0000
0000
0000
0000
0000
3003
,
0220
0000
0000
0000
0000
0000
0000
0330
1001
0000
0000
0000
1100
0000
0000
0000
1010
0000
0000
0000
0110
0000
0000
0000
1001
0000
0000
0000
0011
0000
0000
0000
,
0000
0000
0110
0000
0001
0010
0001
0000
0110
0000
1100
0000
1001
0000
0101
0000
,
1000
0000
0000
0000
0001
0000
0000
0000
0110
0000
0000
0000
0200
0000
0000
0300
2000
0000
0000
3000
0002
0000
0000
0003
0000
0000
0000
0000
0200
0000
0000
0300
,
0002
0000
0000
0003
0020
0000
0000
0030
0001
0000
1000
0000
0001
0000
0000
0000
1010
0000
0000
0000
0110
0000
0000
0000
0001
0000
1000
0000
0001
0000
1000
0000
,
0001
1010
1001
0011
1001
0110
1010
0101
,
0000
0000
0110
0000
0100
0010
0100
0000
1010
0000
0110
0000
0101
0000
1001
0000
,
0000
1000
0101
0101
1010
1010
0101
0101
,
0110
0000
0110
0000
0110
1000
0100
0000
0010
0100
1000
0000
0110
0001
0010
0000
,
0100
0010
0001
0000
0110
0000
0011
0000
1001
0000
0110
0000
1001
0000
1010
0000
,
0000
0000
1010
0000
0100
0001
1000
0000
0110
0000
0011
0000
1001
0000
1010
0000
,
0100
0000
0000
0000
0010
0000
0000
0000
1001
0000
0000
0000
0200
0000
0000
0300
0002
0000
0000
0003
2000
0000
0000
3000
0000
0000
0000
0000
0020
0000
0000
0030
,
0200
0000
0000
0300
0002
0000
0000
0003
0110
0000
0000
0000
1010
0000
0000
0000
0010
0000
1000
0000
0010
0000
1000
0000
0202
0000
0000
0000
0000
0000
0000
0000
,
0000
0000
0000
0000
0000
0000
0000
0303
0210
0000
0000
0000
0000
0000
0000
0000
0001
0000
0000
0000
1000
0000
0000
0300
2002
0000
0000
0000
0000
0000
0000
3003
,
2020
0000
0000
0000
0000
0000
0000
3030
0200
0000
0000
0000
0000
0300
0002
0000
0000
0000
0000
0003
0200
0000
0000
0300
2000
0000
0000
0000
0000
3000
0020
0000
,
0000
0000
0000
0030
2002
0000
0000
3003
0202
0000
0000
0000
0000
0000
0000
0000
0000
0000
0000
0303
2000
0000
0000
0000
0002
0000
3000
0000
0020
0000
0000
0030
,
0200
0000
0000
0300
2000
0000
0000
3000
0200
0000
0003
0300
2000
0000
0000
0000
0002
0000
0000
0003
0020
0000
0000
0030
0002
0000
0000
0003
0020
0000
3000
0030
,
0220
0000
0000
0330
0220
0000
0000
0330
0210
0000
0000
0000
0000
0000
0000
0000
0001
0000
0000
0000
0010
0000
0000
0000
1000
0000
0000
0000
0000
0000
0300
0000
,
1010
0000
0110
0000
1001
0000
1000
0001
,
0100
0000
0000
0000
0010
0000
0000
0000
1200
0000
0010
0000
0001
0000
1000
0000
0000
0000
0000
0300
2020
0000
0000
3030
0102
0000
0000
0000
2000
0000
0000
3000
,
0020
0000
0000
0030
2000
0000
0000
3000
0020
0000
0000
0030
0200
0000
0003
0300
2000
0000
0000
0000
0200
0000
0000
0300
0001
0000
0010
0000
0100
0000
0001
0000
,
0010
0100
0001
0010
0100
3000
1010
0000
1010
0000
1010
0000
0000
0000
0101
0000
,
0101
0000
0101
0000
0000
0000
1100
0000
0011
0000
1100
0000
0001
0010
1000
0000
,
0202
0000
0000
0000
0000
0000
0000
0303
2020
0000
0000
0000
0000
0000
0000
0000
0000
0000
0000
3000
1000
0000
0100
0000
0002
0000
0000
0000
0000
0000
0000
0000
,
0000
0000
0000
0003
2000
0000
0000
0000
0000
0000
0000
0000
0000
3000
0200
0000
0000
0000
0000
0330
1001
0000
0000
0000
1001
0000
0000
0000
0000
0000
0000
0000
,
0110
0000
0000
0000
1000
0000
0001
0000
0220
0000
0000
0000
0000
0000
0000
0330
2000
0000
0000
3000
0200
0000
0000
0300
0021
0000
0000
0000
0001
0000
0000
0030
,
2002
0000
0000
0000
0000
0000
0000
3003
2000
0000
0000
3000
0020
0000
0000
0030
0002
0000
0000
0003
2000
0000
0000
3000
0102
0000
0000
0000
0100
0000
0000
0003
,
0220
0000
0000
0000
0000
0000
0000
0330
0202
0000
0000
0000
0000
0000
0000
0303
0020
0000
0000
0030
0002
0000
0000
0003
2010
0000
0000
0000
0010
0000
0000
0000
,
3200
0000
0000
0000
0000
0000
0000
0300
0022
0000
0000
0033
0200
0000
0000
0300
0020
0000
0000
0030
2000
0000
0000
3000
0201
0000
0000
0000
0001
0000
0000
0300
,
0002
0000
0000
0000
0000
0000
0000
0003
2020
0000
0000
3030
0200
0000
0000
0300
0020
0000
0000
0030
0200
0000
0000
0300
0000
0000
0000
0000
2000
0000
0000
3000
,
0200
0000
0000
0300
0020
0000
0000
0030
0000
0000
0000
0000
2000
0000
0000
3000
0200
0000
0000
0300
0002
0000
0000
0003
0200
0000
0000
0300
0000
0000
0000
0000
,
2000
0000
0000
3000
0020
0000
0000
0030
2000
0000
0200
0300
0020
0030
0002
0003
0200
0300
0020
0030
0002
0003
0200
0300
0020
0030
0002
0003
0200
0300
0020
0030
,
0002
0003
0000
0000
0000
0000
3000
0000
2020
0000
0000
0000
0000
3030
0220
0000
0000
0000
0330
0202
0000
0000
0000
0303
2002
0000
0000
0000
0000
3003
0220
0000
,
0000
0000
0000
0330
0022
0000
0000
0000
0000
0000
0000
0000
0000
0000
0000
0000
0000
0000
0000
0000
0000
0000
0000
0033
2002
0000
0000
0000
0000
0000
0000
0000
,
0000
0000
0000
0000
,
0000
0000
0000
0000
,
0000
3003
0000
0000
0000
0000
0000
0000
0000
0000
0000
0000
0000
0000
0000
0000
;
